#TITLE:Heaven Is A '57 Metallic Grey;
#SUBTITLE:;
#ARTIST:Sweet Little 30's;
#TITLETRANSLIT:;
#SUBTITLETRANSLIT:;
#ARTISTTRANSLIT:;
#CREDIT:;
#BANNER:;
#BACKGROUND:;
#LYRICSPATH:;
#CDTITLE:;
#MUSIC:Heaven Is A 57 Metallic Grey.mp3;
#MUSICLENGTH:84.017;
#OFFSET:-0.100;
#SAMPLESTART:61.825;
#SAMPLELENGTH:12.000;
#SELECTABLE:YES;
#BPMS:0.000=190.000,225.000=80.000;
#STOPS:;
#BGCHANGES:;
#FIRSTBEAT:8.000;

#LASTBEAT:240.000;

#SONGFILENAME:Songs/ERICth The 3rd/Heaven 57/Heaven 57.sm;

#HASMUSIC:1;

#HASBANNER:0;


//---------------dance-single - MANIAC----------------
#NOTES:
     dance-single:
     MANIAC:
     hard:
     8:
     0.534,0.607,0.512,0.190,0.506,255.000,43.000,16.000,0.000,0.000:


0000
0000
0000
0000
,
0000
0000
0000
0000
,
2000
0000
0000
0000
,
3020
0000
0000
0000
,
1030
0000
1000
0100
0000
0100
0010
0000
0010
0001
0000
0001
,
1000
0000
0001
1000
0000
0001
0000
0000
0000
0000
0000
0000
,
1001
0100
0110
0001
,
1000
0011
0100
1000
,
0010
0000
0001
0010
0000
0001
1000
0000
0001
0010
0000
0001
,
1000
0000
0100
0010
0000
0010
0000
0000
0000
0000
0000
1000
,
0100
0000
0100
1000
0000
1000
0010
0000
0010
1000
0000
1000
,
0001
0000
0000
0000
0000
0000
0000
0000
0010
0001
0000
0000
,
0010
0100
1000
0000
,
0001
0010
0001
0010
0001
0010
0001
0010
0001
0010
0001
0010
,
0001
0100
1000
0010
,
0010
0100
1001
0001
,
1000
0000
0000
1100
0000
0000
0010
0001
0000
0000
0000
0000
,
0100
0000
0001
0010
0000
2000
0000
0000
0000
3000
0000
0000
,
0001
0010
0100
1000
,
0001
1000
0100
0010
,
0001
0000
0000
0110
0000
0000
1000
0000
0010
0000
0000
0000
,
0000
0000
0020
0000
0000
2000
0000
0000
0000
3030
0000
0000
,
0010
0001
0100
0001
,
1000
0010
0010
0010
,
2002
0000
0000
3003
,
1000
0100
1000
0100
1000
0100
0010
0100
0010
0100
0010
0100
,
0010
0110
0001
1001
,
0010
0011
0100
1100
,
0100
0011
0100
1010
,
0100
1001
0110
1000
,
0002
0100
1000
0010
,
0203
0010
0001
1000
,
0300
0000
0010
0000
0000
0010
0000
0000
0010
0000
0000
0010
,
0000
0000
1000
0100
0000
0001
0000
0000
0000
0000
0000
0100
,
0010
0000
0010
0001
0000
0001
0100
0000
0100
0010
0000
0010
,
1000
0101
0000
0000
,
0200
0000
0000
0300
,
0010
0001
0010
0001
0010
0001
1000
0001
1000
0001
1000
0001
,
1000
0100
1000
0011
,
0100
0010
0001
1000
,
0101
0000
0000
1100
0000
0000
0101
0000
0000
0000
0000
1010
,
0000
0000
0011
0000
0000
1010
0000
0000
1000
0001
0000
0000
,
1000
0000
0010
0010
0000
0000
0001
0000
0010
0010
0000
0000
,
0100
0100
0001
0001
,
1010
0000
0010
0001
0000
0000
0011
0000
0010
1000
0000
0000
,
1010
0000
0010
0001
0000
0000
0101
0000
0000
0000
0000
0000
,
1001
0110
0001
1100
,
0010
0101
0110
0000
,
0220
0000
0330
0000
,
0001
0000
0100
0010
0000
2000
0000
3000
0000
0000
0000
0000
,
1001
0011
0101
0011
,
1001
1010
1100
1010
,
1000
0000
0100
0010
0000
0100
0010
0000
0100
0010
0000
0100
,
0010
0000
0010
0001
0000
0001
0000
0000
0000
0000
0000
0000
,
0010
0000
0001
0100
0000
0010
0000
0000
0010
0100
0000
0000
,
0000
2000
0000
0000
0000
0000
3000
0000
0000
0000
0000
0000
,
0000
0000
0000
1001
0000
1000
0100
0000
0100
0010
0000
0010
,
0001
0000
0001
0100
0000
0100
0010
0000
0000
2020
0000
0000
,
0000
0000
0000
0000
,
0000
0030
3000
0000
,
0001
0000
0000
0000
,;

//---------------dance-single - ANOTHER----------------
#NOTES:
     dance-single:
     ANOTHER:
     medium:
     5:
     0.000,0.000,0.000,0.000,0.000,0.000,0.000,0.000,0.000,0.000:


0000
0000
0000
0000
,;

//---------------dance-single - BASIC----------------
#NOTES:
     dance-single:
     BASIC:
     easy:
     3:
     0.000,0.000,0.000,0.000,0.000,0.000,0.000,0.000,0.000,0.000:


0000
0000
0000
0000
,;
